Медики Чикаго / Chicago Med / Сезон: 2 / Серии: 1-23 из 23 (Фред Бернер, Майкл Ваксман, Тара Николь Вейр) [2017, США, Драма, WEB-DLRip] VO (Денис Шадинский)

Страницы:  1

Ответить
Автор
Сообщение

Сибиряк777

Top Seed 05* 640r

Стаж: 10 лет 9 месяцев

Сообщений: 3245

Сибиряк777 · 27-Авг-17 23:08 (1 год 9 месяцев назад)

Медики Чикаго / Chicago Med
Год выпуска: 2017
Страна: США
Жанр: Драма
Продолжительность: 00:42:00
Перевод: Любительский (одноголосый закадровый) - Денис Шадинский
Режиссёр: Фред Бернер, Майкл Ваксман, Тара Николь Вейр
В ролях: Оливер Платт, С. Ипейта Меркерсон, Ник Гелфусс, Йайа ДаКоста, Колин Доннелл, Брайан Ти, Торри ДеВито, Рэйчел ДиПилло, Марлайн Эффлэк, Андре Беллос
Описание: Сериал рассказывает о команде врачей, работающих в чикагской больнице. Каждый день им приходится работать в полном хаосе и разбираться с уникальными случаями.



Качество: WEB-DLRip
Формат: AVI
Видео: 720x400 (16:9), 23.976 fps, XviD build 73, 1799 Kbps, 0.26 Bits/Pixel
Аудио: 48 kHz, AC3 Dolby Digital, 2 ch, 192 Kbps
Субтитры: Отсутствуют
Реклама: Отсутствует
Ссылка на предыдущие и альтернативные раздачи / Сэмпл
MediaInfo
General
Complete name : Downloads\Chicago.Med.S02.400p.MegaPeer\Chicago.Med.S02E01.avi
Format : AVI
Format/Info : Audio Video Interleave
File size : 605 MiB
Duration : 42mn 19s
Overall bit rate : 1 999 Kbps
Video #0
ID : 0
Format : MPEG-4 Visual
Format profile : Advanced [email protected]
Format settings, BVOP : 1
Format settings, QPel : No
Format settings, GMC : No warppoints
Format settings, Matrix : Custom
Codec ID : XVID
Codec ID/Hint : XviD
Duration : 42mn 19s
Bit rate : 1 799 Kbps
Width : 720 pixels
Height : 400 pixels
Display aspect ratio : 16:9
Frame rate : 23.976 fps
Color space : YUV
Chroma subsampling : 4:2:0
Bit depth : 8 bits
Scan type : Progressive
Compression mode : Lossy
Bits/(Pixel*Frame) : 0.261
Stream size : 545 MiB (90%)
Writing library : XviD 73
Audio #1
ID : 1
Format : AC-3
Format/Info : Audio Coding 3
Mode extension : CM (complete main)
Format settings, Endianness : Big
Codec ID : 2000
Duration : 42mn 19s
Bit rate mode : Constant
Bit rate : 192 Kbps
Channel(s) : 2 channels
Channel positions : Front: L R
Sampling rate : 48.0 KHz
Bit depth : 16 bits
Compression mode : Lossy
Stream size : 58.1 MiB (10%)
Alignment : Aligned on interleaves
Interleave, duration : 64 ms (1.53 video frames)
Interleave, preload duration : 192 ms
Title : Shad
Скриншоты
Download
Для скачивания .torrent файлов необходима регистрация
Сайт не распространяет и не хранит электронные версии произведений, а лишь предоставляет доступ к создаваемому пользователями каталогу ссылок на торрент-файлы, которые содержат только списки хеш-сумм
[Профиль]  [ЛС] 

trank6120

Стаж: 9 лет 5 месяцев

Сообщений: 3

trank6120 · 22-Окт-17 19:01 (спустя 1 месяц 25 дней)

Спасибо тебе добрый человек за раздачу!
[Профиль]  [ЛС] 

Wentworth_Miller

Стажер-модератор

Стаж: 10 лет 3 месяца

Сообщений: 7274

Wentworth_Miller · 06-Янв-18 14:23 (спустя 2 месяца 14 дней)

проверено
[Профиль]  [ЛС] 

Karitak

Стаж: 3 года 3 месяца

Сообщений: 19


Karitak · 18-Апр-18 13:27 (спустя 3 месяца 11 дней)

10 серия рассинхрон английской дорожки
[Профиль]  [ЛС] 

Vivienne Hates

Стаж: 5 лет 5 месяцев

Сообщений: 28

Vivienne Hates · 23-Май-19 00:24 (спустя 1 год 1 месяц)

порядок серий неправильный! все врасброс! ну кто же так делает....
[Профиль]  [ЛС] 
 
Ответить
Loading...
Error