Под куполом / Under the Dome / Сезон: 3 / Серии: 1-13 (13) (Джек Бендер / Jack Bender, Нильс Арден Оплев / Nils Arden Oplev, Кари Скогланд / Kari Skogland) [2015, США, драма, триллер, фантастика, WEB-DLRip] MVO (Пифагор)

Страницы:  1

Ответить
Автор
Сообщение

Ruddle

Top Seed 02* 80r

Стаж: 3 месяца 1 день

Сообщений: 433

Ruddle · 12-Май-19 17:32 (1 месяц 13 дней назад)

Под куполом / Under the Dome
Год выпуска: 2015
Страна: США
Жанр: фантастика, драма, ужасы
Продолжительность: ~ 00:42:00
Перевод: Профессиональный (многоголосый закадровый) | Пифагор
Субтитры: нет
Режиссёр: Джек Бендер / Jack Bender, Нильс Арден Оплев / Nils Arden Oplev, Кари Скогланд / Kari Skogland, Мигель Сапочник / Miguel Sapochnik, Серджо Мимика-Геззан / Sergio Mimika-Gezzan

В ролях:
Майк Фогель, Колин Форд, Аиша Хиндс, Александр Кох, Рашель Лефевр, Натали Мартинез, Дин Норрис, Джолин Парди, Бриттани Робертсон, Николас Стронг, Нед Беллами, Дэйл Рауль, Р. Кейт Харрис, Стив Болдуин, Шерри Боулинг, Кевин Сайзмор, Эндрю Фогель, Джеймс Алком, Линдс Эдвардс, Джефф Фэйи, Кристал Мартинез, Маккензи Линтц
Описание:
Обычным, пригожим осенним днем, город Честерс Миллз, штат Мэн, был внезапно отрезан от остального мира невидимым силовым барьером. Самолеты врезаются в купол и падают, пылая, с небес; садовнику отрезает силовым полем руку; люди, выехавшие в соседний город по делам, не могут вернуться к своим близким; автомобили взрываются от столкновения с куполом. Никто не понимает, что это за барьер, откуда он взялся и исчезнет ли он.

Качество: WEB-DLRip
Формат: AVI
Видео кодек: XviD
Видео: 720x400 (1.80:1), 23.976 fps, XviD build 73 ~2000 kbps avg, 0.29 bit/pixel
Аудио Rus: 48 kHz, AC3 Dolby Digital, 3/2 (L,C,R,l,r) + LFE ch, ~384 kbps

Рип: Ruddle
Сведение звука: BenderBEST
Реклама отсутствует


Все раздачи сериала
MI
Код:
Общее
Полное имя                               : D:\Under the Dome Season 3 WEB-DLRip\Under.the.Dome.s03e01.WEB-DLRip.RGzsRutracker.avi
Формат                                   : AVI
Формат/Информация                        : Audio Video Interleave
Размер файла                             : 717 Мбайт
Продолжительность                        : 41 м. 52 с.
Общий поток                              : 2393 Кбит/сек
Программа кодирования                    : VirtualDubMod 1.5.10.3 | www.virtualdub-fr.org || (build 2550/release)
Библиотека кодирования                   : VirtualDubMod build 2550/release
Видео
Идентификатор                            : 0
Формат                                   : MPEG-4 Visual
Профиль формата                          : Advanced [email protected]
Настройки формата                        : BVOP1
Параметр BVOP формата                    : 1
Параметр QPel формата                    : Нет
Параметр GMC формата                     : Без точки перехода
Параметр матрицы формата                 : Default (MPEG)
Идентификатор кодека                     : XVID
Идентификатор кодека/Подсказка           : XviD
Продолжительность                        : 41 м. 52 с.
Битрейт                                  : 2000 Кбит/сек
Ширина                                   : 720 пикселей
Высота                                   : 400 пикселей
Соотношение сторон                       : 16:9
Частота кадров                           : 23,976 (24000/1001) кадра/сек
Цветовое пространство                    : YUV
Субдискретизация насыщенности            : 4:2:0
Битовая глубина                          : 8 бит
Тип развёртки                            : Прогрессивная
Метод сжатия                             : С потерями
Бит/(Пиксели*Кадры)                      : 0.290
Размер потока                            : 599 Мбайт (84%)
Библиотека кодирования                   : XviD 73
Аудио
Идентификатор                            : 1
Формат                                   : AC-3
Формат/Информация                        : Audio Coding 3
Идентификатор кодека                     : 2000
Продолжительность                        : 41 м. 52 с.
Вид битрейта                             : Постоянный
Битрейт                                  : 384 Кбит/сек
Каналы                                   : 6 каналов
Расположение каналов                     : Front: L C R, Side: L R, LFE
Частота                                  : 48,0 КГц
Частота кадров                           : 31,250 кадров/сек (1536 SPF)
Битовая глубина                          : 16 бит
Метод сжатия                             : С потерями
Размер потока                            : 115 Мбайт (16%)
Выравнивание                             : Разделение по промежуткам
Продолжительность промежутка             : 42  мс. (1,00 видеокадр)
Время предзагрузки промежутка            : 500  мс.
ServiceKind/String                       : Complete Main
Скриншоты
Релиз группы:
Download
Для скачивания .torrent файлов необходима регистрация
Сайт не распространяет и не хранит электронные версии произведений, а лишь предоставляет доступ к создаваемому пользователями каталогу ссылок на торрент-файлы, которые содержат только списки хеш-сумм
[Профиль]  [ЛС] 

bot · 12-Май-19 17:33 (спустя 1 мин.)

Тема была перенесена из форума Оформление раздач (RG Зарубежные сериалы) в форум Зарубежные сериалы
Ruddle
 

Ruddle

Top Seed 02* 80r

Стаж: 3 месяца 1 день

Сообщений: 433

Ruddle · 12-Май-19 18:48 (спустя 1 час 16 мин.)

Просьба ко всем, при перезалитии раздач на другие трекеры (сайты) , имеющих в названии файлов надпись - RGzsRutracker, обязательно размещать в оформлении этот баннер:

Всем спасибо за понимание. Приятного просмотра.
[Профиль]  [ЛС] 

bot · 23-Май-19 00:12 (спустя 10 дней)

Тема была перенесена из форума Зарубежные сериалы в форум Сериалы США и Канады
Wentworth_Miller
 
 
Ответить
Loading...
Error